#TITLE:Takeover;
#SUBTITLE:SDO China lv16 - [N]hok[Q] Simfile;
#ARTIST:Mizz Nina feat. Flo Rida;
#TITLETRANSLIT:;
#SUBTITLETRANSLIT:;
#ARTISTTRANSLIT:;
#CREDIT:[N]hok[Q];
#BANNER:bn.png;
#BACKGROUND:bg.png;
#LYRICSPATH:;
#CDTITLE:cd.png;
#MUSIC:Take Over.mp3;
#OFFSET:-0.024;
#SAMPLESTART:52.282;
#SAMPLELENGTH:12.000;
#SELECTABLE:YES;
#DISPLAYBPM:124.000;
#BPMS:0.000=124.004,3.000=123.999,5.000=124.004,6.000=123.999,7.000=124.004,8.000=123.999,9.000=124.004,11.000=123.999,13.000=124.004,14.000=123.999,15.000=124.004,16.000=123.999,18.000=124.004,19.000=123.999,21.000=124.004,22.000=123.999,26.000=124.004,27.000=123.999,31.000=124.004,32.000=123.999,37.000=124.004,38.000=123.999,42.000=124.004,43.000=123.999,47.000=124.004,48.000=123.999,51.000=124.004,52.000=123.999,55.000=124.004,56.000=123.999,59.000=124.004,60.000=123.999,63.000=124.004,64.000=123.999,67.000=124.004,68.000=123.999,71.000=124.004,72.000=123.999,75.000=124.004,76.000=123.999,79.000=124.004,80.000=123.999,83.000=124.004,84.000=123.999,87.000=124.004,88.000=123.999,91.000=124.004,92.000=123.999,95.000=124.004,96.000=123.999,99.000=124.004,100.000=123.999,103.000=124.004,104.000=123.999,107.000=124.004,108.000=123.999,111.000=124.004,112.000=123.999,115.000=124.004,116.000=123.999,119.000=124.004,120.000=123.999,123.000=124.004,124.000=123.999,127.000=124.004,128.000=123.999,131.000=124.004,132.000=123.999,135.000=124.004,136.000=123.999,139.000=124.004,140.000=123.999,143.000=124.004,144.000=123.999,147.000=124.004,148.000=123.999,151.000=124.004,152.000=123.999,155.000=124.004,156.000=123.999,159.000=124.004,160.000=123.999,163.000=124.004,164.000=123.999,167.000=124.004,168.000=123.999,171.000=124.004,172.000=123.999,175.000=124.004,176.000=123.999,179.000=124.004,180.000=123.999,221.000=124.004,222.000=123.999;
#STOPS:;
#BGCHANGES:;
// cache tags:
#FIRSTBEAT:4.000;
#LASTBEAT:251.000;
#SONGFILENAME:Songs/Super Dancer Online/Takeover/Takeover.sm;
#HASMUSIC:1;
#HASBANNER:1;
#MUSICLENGTH:121.896;
// end cache tags

//---------------dance-single - ----------------
#NOTES:
     dance-single:
     :
     Hard:
     16:
     1.000,1.000,1.000,0.066,0.271,533.000,368.000,8.000,0.000,67.000:
0000
0000
0000
0000
,
0011
0100
0000
0000
0110
0001
0000
0000
1100
0010
0000
0000
0110
0001
0000
0000
,
1100
0010
0000
0000
0110
1000
0000
0000
0110
0001
1000
1000
0011
0100
0010
0010
,
1100
0000
0010
1100
0011
0000
0110
0000
1100
0000
0010
0100
0011
1000
0100
0010
,
1100
0000
0110
1000
0011
1000
0110
0000
0110
0000
0001
0010
1100
0001
0010
0100
,
0011
0000
0100
0010
1100
0000
0101
0000
0110
0000
0010
0001
0110
0000
1010
0000
,
0101
0000
0010
0001
1100
0010
1100
0000
0101
0000
1010
0000
0101
0000
1001
0000
,
1010
0000
0100
0000
0101
0000
1010
0000
0101
0000
1100
1100
0011
0000
1010
0000
,
0101
0000
1000
0011
1100
0000
0110
0000
0011
0000
0100
0011
1000
0001
0110
0000
,
0101
0000
0110
0000
1010
0000
0101
0000
1100
0000
0011
1100
0011
0000
0110
0000
,
1100
0001
0110
1000
0011
0001
1100
1000
0110
0000
0100
0011
1100
0000
1010
0000
,
1001
0011
0110
1100
0110
0011
1010
1001
,
0110
0011
0100
1010
0101
0011
0110
1100
,
0110
0000
0011
0000
1100
0000
0110
0000
0110
0000
0010
1100
0011
0000
0110
0000
,
1100
0000
0011
0000
0110
0000
0011
0000
0110
0000
0101
0000
0110
0001
1010
0000
,
0100
0000
1010
0000
0101
0000
1010
0000
0101
0000
1010
0010
1001
0000
0101
0000
,
1100
0000
0010
1100
0011
0000
1001
0000
0011
0000
0100
0011
1100
0000
1010
0000
,
0101
0000
1100
0011
1100
0000
0101
0000
0110
0000
1010
0000
0110
0000
0101
0000
,
1010
0000
0010
0100
0011
0001
1010
0000
0110
0000
0011
0011
1100
0000
1010
0000
,
1001
0010
0101
1100
0010
0100
0110
0001
,
1100
0000
0010
0000
1100
0000
0001
0001
0110
0000
0101
0000
0011
0000
1010
0000
,
0101
0000
0010
0010
1100
0000
0001
0000
0110
0000
0010
0010
0101
0000
1010
0000
,
0101
0000
1000
1000
0011
0000
0100
0000
0110
0000
0001
0010
1100
0000
0101
0000
,
0110
0000
0010
0000
1100
0000
0101
0000
1010
0000
0001
1100
0011
0000
0110
0000
,
0011
0000
0100
0000
0110
0000
1000
1000
0011
0000
0100
0011
1100
0000
0101
0000
,
0110
0000
0011
0000
0110
0000
1100
0000
0011
0000
0100
0011
1100
0000
0101
0000
,
1010
0000
0100
0010
1100
0000
0101
0000
0010
0000
0111
0000
1000
0000
0111
0000
,
0210
0001
1010
0011
0010
1000
0011
1010
,
0011
1000
0011
1010
0001
0010
0011
1010
,
0011
1010
0011
0010
1000
0001
0011
1000
,
0011
1000
0011
0001
1010
0001
0011
0010
,
0310
1010
0110
1001
0100
0011
0110
1010
,
0101
0010
1100
0010
0110
0011
0110
1100
,
0010
0101
0110
1010
0100
0101
0011
1010
,
0101
0010
0011
1100
0110
0100
0011
1100
,
0110
0000
0010
0000
1100
0000
0110
0000
0011
0000
1010
1000
0101
0000
1010
0000
,
2001
0000
0110
0011
0110
0000
0110
0011
,
3102
0000
0110
0000
1100
0000
0010
0000
0110
0000
1000
1000
0110
0000
0010
0000
,
0100
0000
0000
0000
0110
0000
1100
0000
0010
0000
0110
0100
0000
0000
1100
0000
,
1010
0000
0110
0000
1100
0000
0010
0000
0100
0000
0010
0010
1100
0000
0110
0000
,
2013
0000
0000
0000
0011
0000
0101
0000
0000
0000
0011
0001
0100
0000
0011
0000
,
0110
0000
0011
0000
0100
0000
0010
0000
0100
0000
0001
0001
0110
0000
0101
0000
,
0011
0000
0100
0000
0011
0000
0101
0000
0010
0000
0101
0001
0010
0000
0101
0000
,
0110
0011
0100
0000
0010
0100
0010
0000
,
3011
0000
0100
0000
0011
0000
1010
0000
0110
0000
0001
1100
0011
0000
0110
0000
,
0110
0000
1010
0000
0110
0000
0101
0000
1010
0000
0010
1100
0011
0000
1010
0000
,
0110
0000
0011
0000
0110
0000
1100
0000
0110
0000
0001
0010
1100
0000
0101
0000
,
1010
0000
0100
0100
0011
0000
1010
0000
0101
0000
1010
0000
0110
0000
1001
0000
,
1120
0000
0001
0000
0101
0000
1100
0001
0100
0000
0001
0000
1100
0000
0100
0000
,
0101
1000
1100
0001
1100
0101
1001
0100
,
0131
1010
0101
1010
0110
0011
0110
1000
,
0110
0011
0110
1000
0101
0010
0110
0001
,
2010
0100
3011
0110
0012
1000
0113
1100
,
0110
0011
1100
0010
0101
1010
0110
1000
,
0110
0101
1010
0101
0011
1010
0101
1010
,
1001
0010
1100
0110
0101
1010
0011
1010
,
0101
0010
0011
0110
1000
0010
0110
0101
,
1010
0100
0011
0110
1000
0101
0011
1010
,
0101
1000
0011
0000
1010
0000
1100
0000
0101
0000
1010
0000
1001
0000
0101
0000
,
0110
0001
1100
0101
0010
0110
0011
1010
,
0101
0000
0010
0000
1010
0000
0100
0010
1100
0000
0101
0000
1100
0000
1001
0000
,
0102
0000
0000
0000
,
0000
0000
0000
0003
;
